<?xml version="1.0" standalone="no"?>
<!DOCTYPE svg PUBLIC "-//W3C//DTD SVG 1.1//EN" "http://www.w3.org/Graphics/SVG/1.1/DTD/svg11.dtd" >
<svg xmlns="http://www.w3.org/2000/svg">
<metadata>Generated by IcoMoon</metadata>
<defs>
<font id="icomoon" horiz-adv-x="1024">
<font-face units-per-em="1024" ascent="960" descent="-64" />
<missing-glyph horiz-adv-x="1024" />
<glyph unicode="&#x20;" horiz-adv-x="512" d="" />
<glyph unicode="&#xe900;" glyph-name="BurgerMenu" d="M128 672c-17.673 0-32 14.327-32 32s14.327 32 32 32h768c17.673 0 32-14.327 32-32s-14.327-32-32-32h-768zM128 416c-17.673 0-32 14.327-32 32s14.327 32 32 32h768c17.673 0 32-14.327 32-32s-14.327-32-32-32h-768zM128 160c-17.673 0-32 14.327-32 32s14.327 32 32 32h768c17.673 0 32-14.327 32-32s-14.327-32-32-32h-768z" />
<glyph unicode="&#xe901;" glyph-name="Close" d="M512 493.255l265.373 265.373c12.497 12.497 32.758 12.497 45.255 0s12.497-32.758 0-45.255l-265.373-265.373 265.373-265.373c12.497-12.497 12.497-32.758 0-45.255s-32.758-12.497-45.255 0l-265.373 265.373-265.373-265.373c-12.497-12.497-32.758-12.497-45.255 0s-12.497 32.758 0 45.255l265.373 265.373-265.373 265.373c-12.497 12.497-12.497 32.758 0 45.255s32.758 12.497 45.255 0l265.373-265.373z" />
<glyph unicode="&#xe902;" glyph-name="EmailAddress" d="M981.333 789.333c23.552 0 42.667-19.115 42.667-42.667v-597.333c0-23.552-19.115-42.667-42.667-42.667h-938.667c-23.552 0-42.667 19.115-42.667 42.667v597.333c0 23.552 19.115 42.667 42.667 42.667h938.667zM42.667 149.333h938.667v597.333h-938.667v-597.333zM511.984 369.538l455.517 393.377c8.917 7.701 22.389 6.715 30.089-2.203s6.715-22.389-2.203-30.089l-469.461-405.419c-8.009-6.917-19.879-6.916-27.888 0.001l-469.419 405.419c-8.917 7.701-9.902 21.173-2.201 30.089s21.173 9.902 30.089 2.201l455.475-393.376zM370.071 459.512c8.924 7.693 22.395 6.694 30.087-2.23s6.694-22.395-2.23-30.087l-342.827-295.509c-8.924-7.693-22.395-6.694-30.087 2.23s-6.694 22.395 2.23 30.087l342.827 295.509zM996.743 164.011c8.924-7.693 9.923-21.163 2.23-30.087s-21.163-9.923-30.087-2.23l-342.869 295.552c-8.924 7.693-9.923 21.163-2.23 30.087s21.163 9.923 30.087 2.23l342.869-295.552z" />
<glyph unicode="&#xe903;" glyph-name="Linkedin" d="M512-38.4c268.631 0 486.4 217.769 486.4 486.4s-217.769 486.4-486.4 486.4c-268.631 0-486.4-217.769-486.4-486.4s217.769-486.4 486.4-486.4zM512-64c-282.77 0-512 229.23-512 512s229.23 512 512 512c282.77 0 512-229.23 512-512s-229.23-512-512-512zM742.473 218.368h-95.494v149.421c0 35.647-0.608 81.489-49.616 81.489-49.706 0-57.271-38.849-57.271-78.932v-151.979h-95.387v307.284h91.541v-42.015h1.306c12.735 24.164 43.893 49.634 90.361 49.634 96.693 0 114.561-63.621 114.561-146.38v-168.523zM337.011 567.631c-30.675 0-55.411 24.808-55.411 55.393 0 30.567 24.737 55.376 55.411 55.376 30.55 0 55.358-24.808 55.358-55.376 0-30.585-24.808-55.393-55.358-55.393zM289.184 218.368h95.602v307.284h-95.602v-307.284z" />
<glyph unicode="&#xe904;" d="M1024 448c0-282.77-229.23-512-512-512s-512 229.23-512 512c0 282.77 229.23 512 512 512s512-229.23 512-512z" />
<glyph unicode="&#xe905;" d="M742.473 218.368h-95.494v149.421c0 35.647-0.608 81.489-49.616 81.489-49.706 0-57.271-38.849-57.271-78.932v-151.979h-95.387v307.284h91.541v-42.015h1.306c12.735 24.164 43.893 49.634 90.361 49.634 96.693 0 114.561-63.621 114.561-146.38v-168.523zM337.011 567.631c-30.675 0-55.411 24.808-55.411 55.393 0 30.567 24.737 55.376 55.411 55.376 30.55 0 55.358-24.808 55.358-55.376 0-30.585-24.808-55.393-55.358-55.393zM289.184 218.368h95.602v307.284h-95.602v-307.284z" />
<glyph unicode="&#xe906;" glyph-name="MeetTeamEmail" d="M972.902 806.4h-921.805c-28.211 0-51.098-22.886-51.098-51.098v-614.605c0-28.211 22.886-51.098 51.098-51.098h921.805c28.211 0 51.098 22.886 51.098 51.098v614.605c0 28.211-22.886 51.098-51.098 51.098zM972.8 755.2l0.102-614.4-921.702-0.102-0.102 614.502h921.702zM511.975 379.911l452.423 403.031c10.557 9.405 26.739 8.47 36.144-2.087s8.47-26.739-2.087-36.144l-469.453-418.202c-9.706-8.647-24.352-8.646-34.058 0.001l-469.402 418.202c-10.557 9.405-11.49 25.587-2.085 36.144s25.587 11.49 36.144 2.085l452.373-403.030zM386.54 461.963c10.735 9.201 26.896 7.958 36.097-2.776s7.958-26.896-2.776-36.097l-352-301.722c-10.735-9.201-26.896-7.958-36.097 2.776s-7.958 26.896 2.776 36.097l352 301.722zM989.46 160.237c10.735-9.201 11.978-25.363 2.776-36.097s-25.363-11.978-36.097-2.776l-352 301.722c-10.735 9.201-11.978 25.363-2.776 36.097s25.363 11.978 36.097 2.776l352-301.722z" />
<glyph unicode="&#xe907;" glyph-name="MeetTeamVcard" d="M972.8 806.4h-921.6c-28.262 0-51.2-22.938-51.2-51.2v-614.4c0-28.262 22.938-51.2 51.2-51.2h921.6c28.262 0 51.2 22.938 51.2 51.2v614.4c0 28.262-22.938 51.2-51.2 51.2zM972.8 755.2v-614.4h-921.6v614.4h921.6zM460.8 576c-14.138 0-25.6 11.462-25.6 25.6s11.462 25.6 25.6 25.6h409.6c14.138 0 25.6-11.462 25.6-25.6s-11.462-25.6-25.6-25.6h-409.6zM460.8 473.6c-14.138 0-25.6 11.462-25.6 25.6s11.462 25.6 25.6 25.6h409.6c14.138 0 25.6-11.462 25.6-25.6s-11.462-25.6-25.6-25.6h-409.6zM460.8 371.2c-14.138 0-25.6 11.462-25.6 25.6s11.462 25.6 25.6 25.6h204.8c14.138 0 25.6-11.462 25.6-25.6s-11.462-25.6-25.6-25.6h-204.8zM332.8 499.2c0 42.386-34.414 76.8-76.8 76.8s-76.8-34.414-76.8-76.8c0-42.386 34.414-76.8 76.8-76.8s76.8 34.414 76.8 76.8zM384 499.2c0-70.663-57.337-128-128-128s-128 57.337-128 128c0 70.663 57.337 128 128 128s128-57.337 128-128z" />
<glyph unicode="&#xe908;" glyph-name="NavAbout" d="M777.587 139.534c22.362-22.297 34.917-52.672 34.917-84.33 0-65.815-53.359-119.194-119.194-119.194h-574.106c-65.799 0-119.194 53.394-119.194 119.194 0 31.61 12.571 61.984 34.89 84.304 60.009 60.009 132.221 103.681 210.929 128.839-40.199 41.136-63.803 96.889-63.803 156.675v99.277c0 123.843 100.379 224.205 224.205 224.205 123.868 0 224.256-100.352 224.256-224.205v-99.277c0-59.79-23.606-115.545-63.809-156.682 78.736-25.187 150.944-68.841 210.909-128.806zM306.374 231.541c-88.427-18.931-169.829-62.796-235.27-128.237-12.714-12.713-19.894-30.063-19.894-48.1 0-37.522 30.471-67.994 67.994-67.994h574.106c37.554 0 67.994 30.451 67.994 67.994 0 18.080-7.159 35.402-19.894 48.1-65.394 65.394-146.775 109.242-235.235 128.241-22.47 4.826-27.692 34.522-8.216 46.724 50.222 31.463 81.329 86.421 81.329 146.754v99.277c0 95.571-77.461 173.005-173.056 173.005-95.551 0-173.005-77.44-173.005-173.005v-99.277c0-59.185 29.935-113.198 78.484-144.933 20.646-8.832 20.766-42.959-5.336-48.547zM989.054 351.025c22.356-22.356 34.941-52.723 34.941-84.304 0-65.84-53.384-119.245-119.194-119.245h-205.875c-14.138 0-25.6 11.462-25.6 25.6s11.462 25.6 25.6 25.6h205.875c37.528 0 67.994 30.477 67.994 68.045 0 17.997-7.189 35.343-19.945 48.1-65.389 65.389-146.791 109.255-235.17 128.187-22.474 4.814-27.711 34.51-8.238 46.721 50.188 31.47 81.286 86.436 81.286 146.759v99.328c0 95.544-77.433 173.005-172.954 173.005-95.576 0-173.056-77.466-173.056-173.005 0-14.138-11.462-25.6-25.6-25.6s-25.6 11.462-25.6 25.6c0 123.818 100.405 224.205 224.256 224.205 123.801 0 224.154-100.388 224.154-224.205v-99.328c0-59.772-23.594-115.521-63.766-156.661 78.695-25.155 150.915-68.825 210.892-128.802z" />
<glyph unicode="&#xe909;" glyph-name="NavContact" d="M524.401 959.995h-162.355c-20.122 0-38.349-8.141-51.558-21.35l-1.28-1.485c-247.040-25.088-309.197-226.765-309.197-489.165s62.157-464.077 309.197-489.165l1.28-1.485c13.21-13.21 31.437-21.35 51.558-21.35h162.355c40.294 0 72.909 32.666 72.909 72.909v191.437c0 40.294-32.614 72.909-72.909 72.909h-162.355c-15.36 0-29.645-4.762-41.37-12.851 0.051 0 0.102-0.051 0.154-0.051l-0.256-0.051c0.051 0.051 0.102 0.051 0.102 0.102-56.73 25.395-60.467 107.366-60.467 187.597 0 80.282 3.738 162.253 60.467 187.597 0 0.051-0.051 0.051-0.102 0.102l0.256-0.051c-0.051 0-0.102 0-0.154-0.051 11.725-8.090 26.010-12.851 41.37-12.851h162.355c40.294 0 72.909 32.614 72.909 72.909v191.437c0 40.243-32.614 72.909-72.909 72.909zM524.401 908.795c11.981 0 21.709-9.728 21.709-21.709v-191.437c0-11.981-9.728-21.709-21.709-21.709h-162.202c-5.274 0-9.267 1.741-11.776 3.379-6.758 4.813-14.694 8.038-23.296 9.165-2.202 0.256-4.403 0.41-6.605 0.41-8.806 0-17.306-2.304-24.73-6.451-86.784-42.138-86.784-156.467-86.784-232.448 0-76.698 0-192.41 89.19-233.626 6.963-3.379 14.643-5.222 22.579-5.222 2.202 0 4.403 0.154 6.656 0.41 8.909 1.178 17.050 4.608 23.91 9.677 2.509 1.485 6.144 2.816 10.701 2.816h162.355c11.981 0 21.709-9.728 21.709-21.709v-191.437c0-11.981-9.728-21.709-21.709-21.709h-162.355c-7.834 0-12.954 3.942-14.285 5.325-8.499 9.728-20.48 15.923-33.382 17.203-184.474 18.79-263.168 149.862-263.168 438.272s78.694 419.482 263.168 438.272c11.878 1.178 24.013 7.731 32.563 16.384 2.406 2.406 7.475 6.144 15.104 6.144h162.355zM625.198 268.795c-6.554 0-13.107 2.509-18.125 7.475-9.984 10.035-9.984 26.214 0 36.25 37.734 37.683 58.522 87.859 58.522 141.21 0 53.402-20.838 103.578-58.624 141.363-9.984 9.984-9.984 26.163 0 36.198 9.984 9.984 26.214 9.984 36.198 0.051 47.462-47.462 73.626-110.541 73.626-177.613 0-67.021-26.112-130.048-73.472-177.459-5.018-4.966-11.571-7.475-18.125-7.475zM746.373 179.574c-6.298 0-12.595 2.304-17.51 6.912-10.291 9.728-10.854 25.907-1.178 36.198 59.034 62.874 91.494 145.715 91.494 233.37 0 89.6-33.741 173.824-95.078 237.107-9.83 10.138-9.574 26.368 0.563 36.198s26.368 9.574 36.198-0.563c70.656-72.909 109.517-169.728 109.517-272.742 0-100.71-37.427-196.045-105.318-268.39-5.069-5.376-11.878-8.090-18.688-8.090zM857.974 80.195c-6.349 0-12.749 2.355-17.715 7.117-10.189 9.779-10.547 25.958-0.768 36.198 85.965 89.958 133.325 208.026 133.325 332.544s-47.411 242.688-133.427 332.646c-9.779 10.24-9.421 26.419 0.768 36.198 10.291 9.728 26.47 9.37 36.198-0.819 95.232-99.533 147.661-230.246 147.661-368.026s-52.429-268.39-147.558-367.974c-5.018-5.222-11.725-7.885-18.483-7.885z" />
<glyph unicode="&#xe90a;" glyph-name="NavHelp" d="M51.2 228.204l109.898 109.898c4.801 4.801 11.312 7.498 18.102 7.498h102.4c14.138 0 25.6-11.462 25.6-25.6s-11.462-25.6-25.6-25.6h-91.796l-146.102-146.102c-16.127-16.127-43.702-4.705-43.702 18.102v716.8c0 42.401 34.399 76.8 76.8 76.8h614.4c42.401 0 76.8-34.399 76.8-76.8v-153.6c0-14.138-11.462-25.6-25.6-25.6s-25.6 11.462-25.6 25.6v153.6c0 14.124-11.476 25.6-25.6 25.6h-614.4c-14.124 0-25.6-11.476-25.6-25.6v-654.996zM972.8 678.4c0 14.124-11.476 25.6-25.6 25.6h-614.4c-14.124 0-25.6-11.476-25.6-25.6v-512c0-14.124 11.476-25.6 25.6-25.6h512c6.79 0 13.301-2.697 18.102-7.498l109.898-109.898v654.996zM332.8 89.6c-42.401 0-76.8 34.399-76.8 76.8v512c0 42.401 34.399 76.8 76.8 76.8h614.4c42.401 0 76.8-34.399 76.8-76.8v-716.8c0-22.807-27.575-34.229-43.702-18.102l-146.102 146.102h-501.396zM640 396.8c-6.656 0-13.312 2.56-17.92 7.68-5.12 4.608-7.68 11.264-7.68 17.92s2.56 13.312 7.68 17.92c9.216 9.728 26.624 9.728 35.84 0 5.12-4.608 7.68-11.264 7.68-17.92s-2.56-13.312-7.68-17.92c-4.608-5.12-11.264-7.68-17.92-7.68zM486.4 396.8c-6.656 0-13.312 2.56-17.92 7.68-5.12 4.608-7.68 11.264-7.68 17.92s2.56 13.312 7.68 17.92c9.728 9.728 26.624 9.728 35.84 0 5.12-4.608 7.68-11.264 7.68-17.92s-2.56-13.312-7.68-17.92c-4.608-5.12-11.264-7.68-17.92-7.68zM793.6 396.8c-6.656 0-13.312 2.56-17.92 7.68-5.12 4.608-7.68 11.264-7.68 17.92s2.56 13.312 7.68 17.92c9.216 9.728 26.624 9.728 35.84 0 5.12-4.608 7.68-11.264 7.68-17.92s-2.56-13.312-7.68-17.92c-4.608-5.12-11.264-7.68-17.92-7.68z" />
<glyph unicode="&#xe90b;" glyph-name="NavNews" d="M256 908.8v-537.6c0-14.138-11.462-25.6-25.6-25.6s-25.6 11.462-25.6 25.6v563.2c0 14.138 11.462 25.6 25.6 25.6h768c14.138 0 25.6-11.462 25.6-25.6v-870.4c0-70.663-57.337-128-128-128h-768c-14.138 0-25.6 11.462-25.6 25.6s11.462 25.6 25.6 25.6h768c42.386 0 76.8 34.414 76.8 76.8v844.8h-716.8zM51.2 345.6v-281.6c0-42.386 34.414-76.8 76.8-76.8s76.8 34.414 76.8 76.8v281.6h-153.6zM0 64v307.2c0 14.138 11.462 25.6 25.6 25.6h204.8c14.138 0 25.6-11.462 25.6-25.6v-307.2c0-70.663-57.337-128-128-128s-128 57.337-128 128zM691.2 550.4c-14.138 0-25.6 11.462-25.6 25.6s11.462 25.6 25.6 25.6h153.6c14.138 0 25.6-11.462 25.6-25.6s-11.462-25.6-25.6-25.6h-153.6zM691.2 704c-14.138 0-25.6 11.462-25.6 25.6s11.462 25.6 25.6 25.6h153.6c14.138 0 25.6-11.462 25.6-25.6s-11.462-25.6-25.6-25.6h-153.6zM384 396.8c-14.138 0-25.6 11.462-25.6 25.6s11.462 25.6 25.6 25.6h460.8c14.138 0 25.6-11.462 25.6-25.6s-11.462-25.6-25.6-25.6h-460.8zM384 243.2c-14.138 0-25.6 11.462-25.6 25.6s11.462 25.6 25.6 25.6h307.2c14.138 0 25.6-11.462 25.6-25.6s-11.462-25.6-25.6-25.6h-307.2zM384 550.4c-14.138 0-25.6 11.462-25.6 25.6v204.8c0 14.138 11.462 25.6 25.6 25.6h204.8c14.138 0 25.6-11.462 25.6-25.6v-204.8c0-14.138-11.462-25.6-25.6-25.6h-204.8zM409.6 601.6h153.6v153.6h-153.6v-153.6z" />
<glyph unicode="&#xe90c;" glyph-name="NavRecentTransactions" d="M717.012 140.8h-333.012c-14.138 0-25.6 11.462-25.6 25.6v204.8c0 14.138 11.462 25.6 25.6 25.6h333.012l1.068 128.213c0.189 22.735 27.71 33.96 43.746 17.843l254.72-256c9.937-9.987 9.937-26.126 0-36.113l-254.72-256c-16.036-16.117-43.557-4.891-43.746 17.843l-1.068 128.213zM409.6 192h332.8c14.055 0 25.482-11.332 25.599-25.387l0.769-92.304 193.518 194.491-193.518 194.491-0.769-92.304c-0.117-14.055-11.544-25.387-25.599-25.387h-332.8v-153.6zM306.988 755.2h333.012c14.138 0 25.6-11.462 25.6-25.6v-204.8c0-14.138-11.462-25.6-25.6-25.6h-333.012l-1.068-128.213c-0.189-22.735-27.71-33.96-43.746-17.843l-254.72 256c-9.937 9.987-9.937 26.126 0 36.113l254.72 256c16.036 16.117 43.557 4.891 43.746-17.843l1.068-128.213zM614.4 704h-332.8c-14.055 0-25.482 11.332-25.599 25.387l-0.769 92.304-193.518-194.491 193.518-194.491 0.769 92.304c0.117 14.055 11.544 25.387 25.599 25.387h332.8v153.6z" />
<glyph unicode="&#xe90d;" glyph-name="PhoneNumber" d="M524.416 960h-162.347c-20.139 0-38.4-8.149-51.584-21.333l-1.28-1.493c-247.040-25.088-309.205-226.773-309.205-489.173s62.165-464.085 309.205-489.173l1.28-1.493c13.184-13.184 31.445-21.333 51.584-21.333h162.347c40.277 0 72.917 32.64 72.917 72.917v191.445c0 40.277-32.64 72.917-72.917 72.917h-162.347c-15.403-0.043-29.653-4.779-41.387-12.843 0.043-0.043 0.128-0.043 0.171-0.085l-0.299-0.043c0.043 0.043 0.085 0.085 0.128 0.128-56.747 25.344-60.459 107.307-60.459 187.563s3.712 162.219 60.459 187.563c-0.043 0.043-0.085 0.085-0.128 0.128l0.299-0.043c-0.043-0.043-0.128-0.043-0.171-0.085 11.733-8.064 25.984-12.8 41.387-12.843h162.347c40.277 0 72.917 32.64 72.917 72.917v191.445c0 40.277-32.64 72.917-72.917 72.917zM524.416 917.333c16.683 0 30.251-13.568 30.251-30.251v-191.445c0-16.683-13.568-30.251-30.251-30.251h-162.261c-5.973 0-11.691 1.707-16.512 4.864-5.675 4.053-12.331 6.827-19.584 7.765-1.835 0.213-3.669 0.341-5.504 0.341-7.424 0-14.549-1.92-20.821-5.461-82.176-39.808-82.176-150.997-82.176-224.896 0-74.496 0-186.752 84.011-225.792 5.888-2.901 12.459-4.523 19.243-4.523 1.835 0 3.669 0.085 5.504 0.341 7.595 0.981 14.507 3.968 20.267 8.32 4.651 2.773 9.984 4.267 15.488 4.267h162.347c16.683 0 30.251-13.568 30.251-30.251v-191.445c0-16.683-13.568-30.251-30.251-30.251h-162.347c-8.107 0-15.701 3.115-20.779 8.32-7.125 8.107-17.024 13.184-27.733 14.293-189.909 19.285-270.891 152.875-270.891 446.72s80.981 427.435 270.891 446.72c9.899 1.024 20.224 6.699 27.307 13.952 5.675 5.589 13.184 8.661 21.205 8.661h162.347zM656.137 592.357c-8.34 8.322-8.354 21.83-0.032 30.17s21.83 8.354 30.17 0.032c46.049-45.953 72.397-108.17 72.397-174.546 0-66.28-26.307-128.45-72.246-174.437-8.327-8.336-21.834-8.343-30.17-0.016s-8.343 21.834-0.016 30.17c38.030 38.070 59.765 89.434 59.765 144.283 0 54.929-21.762 106.317-59.869 144.345zM743.635 688.095c-8.197 8.463-7.982 21.969 0.481 30.166s21.969 7.982 30.166-0.481c68.906-71.139 108.324-167.313 108.324-269.776 0-100.38-37.797-194.741-104.212-265.482-8.064-8.59-21.565-9.015-30.155-0.951s-9.015 21.565-0.951 30.155c59.031 62.875 92.652 146.811 92.652 236.278 0 91.316-35.063 176.864-96.305 240.091zM846.723 783.612c-8.141 8.517-7.837 22.021 0.679 30.162s22.021 7.837 30.162-0.679c93.369-97.671 146.414-227.227 146.414-365.077 0-137.855-53.007-267.369-146.328-364.992-8.141-8.517-21.645-8.821-30.162-0.68s-8.821 21.645-0.68 30.162c85.805 89.761 134.504 208.747 134.504 335.509 0 126.756-48.735 245.785-134.589 335.595z" />
<glyph unicode="&#xe90e;" glyph-name="Twitter" d="M512-38.4c268.631 0 486.4 217.769 486.4 486.4s-217.769 486.4-486.4 486.4c-268.631 0-486.4-217.769-486.4-486.4s217.769-486.4 486.4-486.4zM512-64c-282.77 0-512 229.23-512 512s229.23 512 512 512c282.77 0 512-229.23 512-512s-229.23-512-512-512zM742.4 582.883c-17.132-7.623-35.311-12.692-54.369-14.87 19.31 11.519 34.347 30.117 41.636 52.149-18.221-10.765-38.704-18.724-60.024-22.954-17.425 18.43-41.929 29.991-69.030 29.991-52.275 0-94.749-42.474-94.749-94.581 0-7.372 1.173-14.535 2.597-21.446-78.538 3.77-148.071 41.384-194.859 98.728-8.084-13.865-12.859-30.368-12.859-47.542 0-32.756 16.797-61.825 42.055-78.664-15.331 0.461-29.907 4.608-42.851 11.645v-1.005c0-46.034 32.588-84.109 75.858-92.738-7.791-2.178-16.127-3.225-24.965-3.225-5.822 0-11.854 0.419-17.551 1.592 12.105-37.615 46.83-65.051 88.13-65.763-32.127-25.342-73.051-40.212-117.368-40.212-7.707 0-15.037 0.335-22.451 1.257 41.845-26.975 91.565-42.557 144.929-42.557 173.748 0 268.79 144.050 268.79 268.957 0 4.147 0 8.084-0.084 12.231 18.388 13.362 34.431 30.117 47.165 49.008z" />
<glyph unicode="&#xe90f;" d="M1024 448c0-282.77-229.23-512-512-512s-512 229.23-512 512c0 282.77 229.23 512 512 512s512-229.23 512-512z" />
<glyph unicode="&#xe910;" d="M742.419 582.882c-17.133-7.624-35.312-12.692-54.372-14.871 19.311 11.519 34.349 30.118 41.637 52.152-18.222-10.765-38.705-18.724-60.027-22.955-17.426 18.431-41.931 29.992-69.033 29.992-52.277 0-94.753-42.475-94.753-94.585 0-7.372 1.173-14.535 2.597-21.447-78.542 3.77-148.077 41.386-194.867 98.732-8.085-13.865-12.86-30.369-12.86-47.544 0-32.757 16.797-61.828 42.056-78.667-15.331 0.461-29.909 4.608-42.852 11.645v-1.005c0-46.036 32.59-84.113 75.861-92.742-7.791-2.178-16.127-3.225-24.966-3.225-5.823 0-11.855 0.419-17.551 1.592 12.106-37.616 46.832-65.053 88.134-65.765-32.129-25.343-73.054-40.213-117.372-40.213-7.708 0-15.038 0.335-22.452 1.257 41.847-26.976 91.569-42.559 144.935-42.559 173.755 0 268.801 144.056 268.801 268.968 0 4.147 0 8.085-0.084 12.232 18.389 13.363 34.433 30.118 47.167 49.010z" />
<glyph unicode="&#xe911;" glyph-name="Youtube" d="M512-38.4c268.631 0 486.4 217.769 486.4 486.4s-217.769 486.4-486.4 486.4c-268.631 0-486.4-217.769-486.4-486.4s217.769-486.4 486.4-486.4zM512-64c-282.77 0-512 229.23-512 512s229.23 512 512 512c282.77 0 512-229.23 512-512s-229.23-512-512-512zM459.345 357.778v190.323l167.273-95.167-167.273-95.155zM831.428 607.984c-7.367 27.718-29.044 49.537-56.587 56.95-49.912 13.466-250.041 13.466-250.041 13.466s-200.129 0-250.041-13.466c-27.531-7.413-49.22-29.232-56.587-56.95-13.372-50.24-13.372-155.050-13.372-155.050s0-104.798 13.372-155.038c7.367-27.718 29.056-49.548 56.587-56.95 49.912-13.455 250.041-13.455 250.041-13.455s200.129 0 250.041 13.455c27.543 7.402 49.22 29.232 56.587 56.95 13.372 50.24 13.372 155.038 13.372 155.038s0 104.809-13.372 155.050z" />
<glyph unicode="&#xe912;" d="M1024 448c0-282.77-229.23-512-512-512s-512 229.23-512 512c0 282.77 229.23 512 512 512s512-229.23 512-512z" />
<glyph unicode="&#xe913;" d="M459.345 357.778v190.323l167.273-95.167-167.273-95.155zM831.428 607.984c-7.367 27.718-29.044 49.537-56.587 56.95-49.912 13.466-250.041 13.466-250.041 13.466s-200.129 0-250.041-13.466c-27.531-7.413-49.22-29.232-56.587-56.95-13.372-50.24-13.372-155.050-13.372-155.050s0-104.798 13.372-155.038c7.367-27.718 29.056-49.548 56.587-56.95 49.912-13.455 250.041-13.455 250.041-13.455s200.129 0 250.041 13.455c27.543 7.402 49.22 29.232 56.587 56.95 13.372 50.24 13.372 155.038 13.372 155.038s0 104.809-13.372 155.050z" />
<glyph unicode="&#xe914;" glyph-name="ArrowDownBig" d="M512 280.296l469.392 417.238c10.567 9.393 26.748 8.441 36.141-2.126s8.441-26.748-2.126-36.141l-486.4-432.356c-9.699-8.622-24.316-8.622-34.015 0l-486.4 432.356c-10.567 9.393-11.519 25.574-2.126 36.141s25.574 11.519 36.141 2.126l469.392-417.238z" />
<glyph unicode="&#xe915;" glyph-name="ArrowDownSmall" d="M85.215 691.067c-21.134 18.786-53.497 16.883-72.283-4.252s-16.883-53.497 4.252-72.283l460.8-409.6c19.399-17.244 48.632-17.244 68.031 0l460.8 409.6c21.134 18.786 23.038 51.148 4.252 72.283s-51.148 23.038-72.283 4.252l-426.785-379.364-426.785 379.364z" />
<glyph unicode="&#xe916;" glyph-name="ArrowLeftBig" horiz-adv-x="461" d="M454.781 917.91c9.107 10.815 7.723 26.964-3.092 36.072s-26.964 7.723-36.072-3.092l-409.6-486.4c-8.024-9.529-8.024-23.451 0-32.98l409.6-486.4c9.107-10.815 25.257-12.199 36.072-3.092s12.199 25.257 3.092 36.072l-395.714 469.91 395.714 469.91z" />
<glyph unicode="&#xe917;" glyph-name="ArrowLeftSmall" d="M375.703 448l379.364 426.785c18.786 21.134 16.883 53.497-4.252 72.283s-53.497 16.883-72.283-4.252l-409.6-460.8c-17.244-19.399-17.244-48.632 0-68.031l409.6-460.8c18.786-21.134 51.148-23.038 72.283-4.252s23.038 51.148 4.252 72.283l-379.364 426.785z" />
<glyph unicode="&#xe918;" glyph-name="ArrowRightBig" horiz-adv-x="461" d="M6.019 917.91c-9.107 10.815-7.723 26.964 3.092 36.072s26.964 7.723 36.072-3.092l409.6-486.4c8.024-9.529 8.024-23.451 0-32.98l-409.6-486.4c-9.107-10.815-25.257-12.199-36.072-3.092s-12.199 25.257-3.092 36.072l395.714 469.91-395.714 469.91z" />
<glyph unicode="&#xe919;" glyph-name="ArrowRightSmall" d="M648.297 448l-379.364 426.785c-18.786 21.134-16.883 53.497 4.252 72.283s53.497 16.883 72.283-4.252l409.6-460.8c17.244-19.399 17.244-48.632 0-68.031l-409.6-460.8c-18.786-21.134-51.148-23.038-72.283-4.252s-23.038 51.148-4.252 72.283l379.364 426.785z" />
<glyph unicode="&#xe91a;" glyph-name="ArrowUpBig" d="M512 644.149l469.392-417.238c10.567-9.393 26.748-8.441 36.141 2.126s8.441 26.748-2.126 36.141l-486.4 432.356c-9.699 8.622-24.316 8.622-34.015 0l-486.4-432.356c-10.567-9.393-11.519-25.574-2.126-36.141s25.574-11.519 36.141-2.126l469.392 417.238z" />
<glyph unicode="&#xe91b;" glyph-name="ArrowUpSmall" d="M85.215 204.933c-21.134-18.786-53.497-16.883-72.283 4.252s-16.883 53.497 4.252 72.283l460.8 409.6c19.399 17.244 48.632 17.244 68.031 0l460.8-409.6c21.134-18.786 23.038-51.148 4.252-72.283s-51.148-23.038-72.283-4.252l-426.785 379.364-426.785-379.364z" />
</font>
</defs>
</svg>
